1. General
    Complete name : D:\[C]lients\SANDRA - Maria Magdalena
    Format : MPEG-4
    Format profile : Base Media / Version 2
    Codec ID : mp42
    File size : 85.2 MiB
    Duration : 3mn 57s
    Overall bit rate : 3 010 Kbps
    Encoded date : UTC 2011-02-02 21:30:24
    Tagged date : UTC 2011-02-02 21:30:24
    gsst : 0
    gstd : 237505
    gssd : BADC206A1MH1305561708218113
    gshh : v21.lscache8.c.

    Video
    ID : 1
    Format : AVC
    Format/Info : Advanced Video Codec
    Format profile : High@L3.1
    Format settings, CABAC : Yes
    Format settings, ReFrames : 1 frame
    Codec ID : avc1
    Codec ID/Info : Advanced Video Coding
    Duration : 3mn 57s
    Bit rate mode : Variable
    Bit rate : 2 876 Kbps
    Maximum bit rate : 4 245 Kbps
    Width : 960 pixels
    Height : 720 pixels
    Display aspect ratio : 4:3
    Frame rate mode : Variable
    Frame rate : 30.000 fps
    Minimum frame rate : 29.412 fps
    Maximum frame rate : 55.556 fps
    Color space : YUV
    Chroma subsampling : 4:2:0
    Bit depth : 8 bits
    Scan type : Progressive
    Bits/(Pixel*Frame) : 0.139
    Stream size : 81.4 MiB (96%)
    Tagged date : UTC 2011-02-02 21:30:36

    Audio
    ID : 2
    Format : AAC
    Format/Info : Advanced Audio Codec
    Format profile : LC
    Codec ID : 40
    Duration : 3mn 57s
    Bit rate mode : Variable
    Bit rate : 128 Kbps
    Maximum bit rate : 147 Kbps
    Channel(s) : 2 channels
    Channel positions : Front: L R
    Sampling rate : 44.1 KHz
    Compression mode : Lossy
    Stream size : 3.62 MiB (4%)
    Title : (C) 2007 Google Inc. v08.13.2007.
    Encoded date : UTC 2011-02-02 21:30:31
    Tagged date : UTC 2011-02-02 21:30:36

    # vimeo.com/23805733 Uploaded 16.4K Plays 3 Comments
  2. Erasure performing Sometimes and Breathe live at "Formel Eins - die Show" on kabel eins, Germany, 09 Feb 2005.

    # vimeo.com/9712024 Uploaded 1,382 Plays 1 Comment

LOS 80S EN POWERMIX RADIO!! www.powermixradioarg.jimdo.com

Powermix radio arg

Powermix Radio te muestra la programacion en este canal podes escuchar pop,dance,80s ...powermix radio lo mejor esta por venir!

Browse This Channel

Shout Box

Heads up: the shoutbox will be retiring soon. It’s tired of working, and can’t wait to relax. You can still send a message to the channel owner, though!

Channels are a simple, beautiful way to showcase and watch videos. Browse more Channels.