1. Stream #0.0: Video: Andrzej Żuławski - Na Srebrnym Globie (PL, 1987)
    Stream #0.1: Audio: Mondkopf - Day of Anger (2011)

    # vimeo.com/144337520 Uploaded 447 Plays 0 Comments
  2. Fan video for this song.
    Video track based on http://www.imdb.com/title/tt1111890/

    # vimeo.com/15176371 Uploaded 3,485 Plays 1 Comment
  3. Fan video for this song.
    Video track based on http://www.imdb.com/title/tt0087182/

    # vimeo.com/15179409 Uploaded 1,248 Plays 0 Comments

Movie Music Videos

dissonance

Browse This Channel

Shout Box

Heads up: the shoutbox will be retiring soon. It’s tired of working, and can’t wait to relax. You can still send a message to the channel owner, though!

Channels are a simple, beautiful way to showcase and watch videos. Browse more Channels.