1. Asymmetric VFX FilmReel Jan'2010

    03:19

    from Apola Express / Added

    146 Plays / / 0 Comments

    + More details
    • Asymmetric VFX Commercials Demo 2010

      02:15

      from Apola Express / Added

      228 Plays / / 0 Comments

      + More details
      • Monsters of Creative "Stability in Russia"

        00:25

        from Asymmetric VFX / Added

        179 Plays / / 0 Comments

        One of two promo spots we did for Moscow RED Apple 2009.

        + More details
        • Monsters of Creative "No bribes, just a gift"

          00:23

          from Asymmetric VFX / Added

          226 Plays / / 0 Comments

          One of two promo spots we did for Moscow RED Apple 2009.

          + More details
          • commercials reel winter 2010

            02:15

            from Asymmetric VFX / Added

            315 Plays / / 0 Comments

            + More details
            • Asymmetric VFX mart'09

              02:40

              from Apola Express / Added

              50 Plays / / 0 Comments

              Enjoy!

              + More details
              • interpolated fields test

                00:24

                from B Unis / Added

                187 Plays / / 0 Comments

                Same clip as other demos, but in this case the project settings called for deinterlacing using the interpolated fields method, along with asymmetric Gaussian motion blur. Upload file specs: General Complete name : M:\Vid\UBIK\InterlacingTestAB01intAGB.mp4 Format : MPEG-4 Format profile : Base Media / Version 2 Codec ID : mp42 File size : 18.1 MiB Duration : 24s 90ms Overall bit rate : 6 292 Kbps Encoded date : UTC 2009-09-16 16:40:06 Tagged date : UTC 2009-09-16 16:40:06 Video ID : 2 Format : AVC Format/Info : Advanced Video Codec Format profile : Baseline@L3.1 Format settings, CABAC : No Format settings, ReFrames : 2 frames Muxing mode : Container profile=Unknown@0.0 Codec ID : avc1 Codec ID/Info : Advanced Video Coding Duration : 24s 90ms Bit rate mode : Variable Bit rate : 6 097 Kbps Width : 1 280 pixels Height : 720 pixels Display aspect ratio : 16/9 Frame rate mode : Constant Frame rate : 29.970 fps Resolution : 24 bits Colorimetry : 4:2:0 Scan type : Progressive Bits/(Pixel*Frame) : 0.221 Stream size : 17.5 MiB (97%) Language : English Encoded date : UTC 2009-09-16 16:40:06 Tagged date : UTC 2009-09-16 16:40:06 Audio ID : 1 Format : AAC Format/Info : Advanced Audio Codec Format version : Version 4 Format profile : LC Format settings, SBR : No Codec ID : 40 Duration : 24s 64ms Bit rate mode : Constant Bit rate : 192 Kbps Channel(s) : 2 channels Channel positions : L R Sampling rate : 48.0 KHz Resolution : 16 bits Stream size : 564 KiB (3%) Language : English Encoded date : UTC 2009-09-16 16:40:06 Tagged date : UTC 2009-09-16 16:40:06

                + More details
                • Asymmetric VFX summer09

                  01:59

                  from Apola Express / Added

                  91 Plays / / 0 Comments

                  + More details
                  • Liz and Her 3rd Revision Rhinoplasty Nose Surgery

                    07:30

                    from Jim Mutter / Added

                    172 Plays / / 0 Comments

                    Liz came into me for a revision rhinoplasty. She told me that shes had two previous rhinoplasty surgeries. She was unhappy with the way her nose appeared on her face. She felt it was asymmetric, the tip was kind of bulbous, or large appearing, especially when she looked up, this view, it was very asymmetric. And so, her whole goal was to make it look better, hopefully make it her LAST surgery, and also to help with her breathing. With my examination of Liz, I found that most of the septo-cartilage, which is the septum inside here between the two nostrils, which is a great source of cartilage was GONE! The next thing we can go to is the ear. The problem with the ear cartilage is that its too soft and too curved, and if you want to do something strong for the nose and give it really good shape, you cant use the ear. So, we had a talk about using rib cartilage. One of the things thats very important about revision rhinoplasty that you always have to consider is; What are you going to find in there? Even though you can feel the nose, you can palpate it, you can look at it, and you can guess what the other doctors have performed; your first up-hill battle is to see how much scar tissue youre going to be able to identify with. So when you have to open up the nose, you have to remove the scar tissue, identify it: whats there, whats present, whats been removed. Then after you do that, and you have cartilage now ready for grafting, or fascia, or perichondrium, you have to start rebuilding it.

                    + More details
                    • Acro tricks: Asymmetric SAT

                      00:46

                      from justACRO / Added

                      3,551 Plays / / 0 Comments

                      Asymmetric SAT performed by Gábor Kézi justACRO archive videos from 2005. See description at www.justacro.com/tricks

                      + More details

                      What are Tags?

                      Tags

                      Tags are keywords that describe videos. For example, a video of your Hawaiian vacation might be tagged with "Hawaii," "beach," "surfing," and "sunburn."