1. D-Passion - The Third Movement 10 YearMix

    02:17:41

    from FrankSchopman87 Added 156 0 0

    D-Passion - The Third Movement 10 YearMix

    + More details
    • This Is Not A Summer Promo

      01:49:27

      from jdelmoral Added 2 0 0

      + More details
      • Be Known Conference - Full Service

        01:30:25

        from RIZN Added 392 1 1

        Check out the full service from our first ever Youth Conference with guest speaker, Pastor Chad Veach. Be Known Youth Conference ran from February 6-7th. Follow @RIZNYouth on Twitter: twitter.com/RIZNyouth Facebook: facebook.com/RIZNWorship Instagram: instagram.com/riznyouth RIZN happens every Friday night from 7-10pm at 7215 Argyll Road. RIZN kicks off with a passionate, high-energy, contemporary, and creative worship from a live band. After the service portion, RIZN opens up the floor to great games, thumpin' music and dancing, and a coffee shop style lounge in the lobby. RIZN is a great place for junior and senior high school students to come out and have a great time, meet friends, build relationships, and most of all connect with God, and His plans and purpose for their lives. celebrationedmonton.com/ministries/r­izn/fridays vimeo.com/rizn CSP #080926

        + More details
        • Easter 2013 Worship Service

          01:26:05

          from Harvest Bible Chapel Added 2,504 24 1

          Recorded Easter Sunday 2013 at Harvest Bible Chapel in Oakville, ON For more information visit www.harvestoakville.ca Credits: "The Story of God": Matt Papa "The Same Power": Worship Central "Chris The Lord Is Risen Today (Everything Has Changed)": Harvest Worship "Christ Is Risen": Matt Maher "In Christ Alone": Keith and Kristyn Getty "Victor's Crown": Israel Houghton , Kari Jobe , Darlene Zschech

          + More details
          • InTurn - Return of Vocals Volume One

            01:19:46

            from Fábio Dias Added 234 0 0

            MP4 Original: Format : Windows Media File size : 347 MiB Duration : 1h 19mn Overall bit rate mode : Constant Overall bit rate : 607 Kbps Maximum Overall bit rate : 1 000 Kbps Encoded date : UTC 2011-06-28 10:08:41.531 Video ID : 2 Format : VC-1 Format profile : AP@L2 Codec ID : WVC1 Codec ID/Hint : Microsoft Description of the codec : Windows Media Video 9 Advanced Profile Duration : 1h 19mn Bit rate mode : Constant Bit rate : 800 Kbps Width : 1 280 pixels Height : 720 pixels Display aspect ratio : 16:9 Frame rate : 1.000 fps Chroma subsampling : 4:2:0 Bit depth : 8 bits Scan type : Progressive Compression mode : Lossy Bits/(Pixel*Frame) : 0.868 Stream size : 456 MiB Language : English (UK) Audio ID : 1 Format : WMA Format profile : Pro Codec ID : 162 Codec ID/Info : Windows Media Audio Description of the codec : Windows Media Audio 10 Professional - 192 kbps, 44 kHz, 2 channel 24 bit (A/V) 1-pass CBR Duration : 1h 19mn Bit rate mode : Constant Bit rate : 192 Kbps Channel(s) : 2 channels Sampling rate : 44.1 KHz Bit depth : 24 bits Stream size : 110 MiB (32%) Language : English DJ InTurn PROMO ONLY

            + More details
            • Gary Vaynerchuk - Jab Jab Jab Right Hook

              01:17:52

              from Matthew Lenz Added 373 1 0

              Gary Vaynerchuk spoke on Feb 5th, 2014 at Columbia University. Filmed for the Office of Alumni and Development , his talk gives an insight into the world of entrepreneurship and utilizing social media to engage consumers in your brand or company.

              + More details
              • Untitled

                01:17:10

                from omnis Added 6 0 0

                + More details
                • Atys - Veneral Sunrise (Promo Mix 03) 2010 progressive house

                  01:16:10

                  from atys Added 363 1 1

                  Spring has come and why not welcome the beautiful sunrise with beautiful music? TRACKLIST: 1. Robert Burian - Recovery (original mix) 2. Beltek - Eclipse (original mix) 3. Simon Sheppard - Arcane (original mix) 4. Klauss Goulart - Frozen Walls (original mix) 5. Dezza - Apt201 (original mix) 6. Vadim Soloviev - Blue funk (original mix) 7. M.I.K.E. presents Plastic Boy - Journey of a Man (original mix) 8. The Blizzard & Omnia - Metanoia (EDU remix) 9. Alex M.O.R.P.H. feat. Ana Criado - Sunset Boulevard (Sted-E & Hybrid Heights Club Mix) 10. Dudu Nahas - Last Dream (original mix) 11. Ivan Deyanov & Veselin Tasev - Violettu (original mix) visit my blog for more: www.atys-music.blogspot.com

                  + More details
                  • Stan P. House Promo Videomix

                    01:14:41

                    from Stan P RMX Added 706 2 0

                    http://www.facebook.com/DjStanP https://soundcloud.com/dj-stan-p

                    + More details
                    • Kidsweek 2011: PANDAMANIA!

                      01:14:40

                      from Park Street Church Added 1,736 0 0

                      + More details

                      What are Tags?

                      Tags

                      Tags are keywords that describe videos. For example, a video of your Hawaiian vacation might be tagged with "Hawaii," "beach," "surfing," and "sunburn."